注册 登录  
 加关注
   显示下一条  |  关闭
温馨提示!由于新浪微博认证机制调整,您的新浪微博帐号绑定已过期,请重新绑定!立即重新绑定新浪微博》  |  关闭

☆秋雨 聽風★博客

音乐,是人生最大的快乐;音乐,是生活中的一股清流;首先,是陶冶性情的熔炉

 
 
 

日志

 
 

群星.-.[相映成趣.(箫笛演奏)].专辑.(FLAC)  

2016-11-21 15:51:39|  分类: 音乐(★ ★ ) |  标签: |举报 |字号 订阅

  下载LOFTER 我的照片书  |

群星.-.[相映成趣.(箫笛演奏)].专辑.(FLAC)

群星.-.[相映成趣.(箫笛演奏)].专辑.(FLAC) - 秋雨听风 - ☆秋雨 聽風★博客

 

专辑中文名: 相映成趣(箫笛演奏)
专辑英文名: Peflect
艺术家: 群星音乐类型: 民乐
资源格式: FLAC+cue
版本: [天籁音像]HDCD
发行时间: 2002年
地区: 大陆
制作:广东天籁音像有限公司
出版发行:贵州文化音像出版社
ISRC:CN-F28-02-426-00/A.J6
唱片格式:24bit/96Khz HDCD
专辑介绍:
  笛,我国各地普遍流行的一种吹奏乐器,竹制,八度超吹乐器。常用的有两种,发音较高者为梆笛,发音较低者为曲篇,除了常用的六孔笛之外,目前在一些乐团中还使用经过改良的多孔笛这些笛子加了音键之后,便具有吹奏半音准确,转调方便,音色在合奏中容易协调等优点。
  箫,亦称洞箫,是竹制的吹奏乐器,外形似笛,竖吹。该专辑中担纲演奏的臧四伟先生用的是G调箫。箫没有变音装置,变音靠气息控制和按半孔的方法演奏,转调不方便,一般情况下,可转至属调和下属调。箫声柔和优美,适宜于演奏悠长,恬静抒情如歌的旋律,多用于独奏或重奏。
  按:该专辑中除了《牧民新歌》、《渔舟唱晚》外,都是根据通俗歌曲改编的乐曲,而且还使用了电声乐队伴奏的,是注重通俗性一张民乐箫笛专辑。
专辑曲目:
01. 牧民新歌
02. 康定情歌
03. 人说山西好风光
04. 珊瑚倾
05. 西沙,我可爱的家乡
06. 牧歌
07. 牧羊姑娘
08. 望春风
09. 渔舟唱晚
10. 敖包相会
11. 同一首歌  

群星.-.[相映成趣.(箫笛演奏)].专辑.(FLAC) - 秋雨听风 - ☆秋雨 聽風★博客

 

 专辑下载:

群星.-.[相映成趣.(箫笛演奏)].专辑.(FLAC).flac
缺少CUE文件!请自行制作CUE文件

CUE文件代码如下:

REM GENRE 民乐
REM DATE 2002
REM DISCID A50A870B
REM COMMENT "ExactAudioCopy v0.99pb4"
PERFORMER "箫笛演奏"
TITLE "相映成趣"
FILE "群星.-.[相映成趣.(箫笛演奏)].专辑.(FLAC).flac" WAVE
  TRACK 01 AUDIO
    TITLE "牧民新歌"
    PERFORMER "箫笛演奏"
    INDEX 01 00:00:00
  TRACK 02 AUDIO
    TITLE "康定情歌"
    PERFORMER "箫笛演奏"
    INDEX 01 04:55:01
  TRACK 03 AUDIO
    TITLE "人说山西好风光"
    PERFORMER "箫笛演奏"
    INDEX 01 08:37:49
  TRACK 04 AUDIO
    TITLE "珊瑚倾"
    PERFORMER "箫笛演奏"
    INDEX 01 11:53:15
  TRACK 05 AUDIO
    TITLE "西沙,我可爱的家乡"
    PERFORMER "箫笛演奏"
    INDEX 01 16:15:05
  TRACK 06 AUDIO
    TITLE "牧歌"
    PERFORMER "箫笛演奏"
    INDEX 01 20:15:27
  TRACK 07 AUDIO
    TITLE "牧羊姑娘"
    PERFORMER "箫笛演奏"
    INDEX 01 24:28:68
  TRACK 08 AUDIO
    TITLE "望春风"
    PERFORMER "箫笛演奏"
    INDEX 01 28:46:24
  TRACK 09 AUDIO
    TITLE "渔舟唱晚"
    PERFORMER "箫笛演奏"
    INDEX 01 33:13:38
  TRACK 10 AUDIO
    TITLE "敖包相会"
    PERFORMER "箫笛演奏"
    INDEX 01 37:29:27
  TRACK 11 AUDIO
    TITLE "同一首歌"
    PERFORMER "箫笛演奏"
    INDEX 01 41:23:58

  评论这张
 
阅读(543)| 评论(0)
推荐

历史上的今天

在LOFTER的更多文章

评论

<#--最新日志,群博日志--> <#--推荐日志--> <#--引用记录--> <#--博主推荐--> <#--随机阅读--> <#--首页推荐--> <#--历史上的今天--> <#--被推荐日志--> <#--上一篇,下一篇--> <#-- 热度 --> <#-- 网易新闻广告 --> <#--右边模块结构--> <#--评论模块结构--> <#--引用模块结构--> <#--博主发起的投票-->
 
 
 
 
 
 
 
 
 
 
 
 
 
 

页脚

网易公司版权所有 ©1997-2017