注册 登录  
 加关注
   显示下一条  |  关闭
温馨提示!由于新浪微博认证机制调整,您的新浪微博帐号绑定已过期,请重新绑定!立即重新绑定新浪微博》  |  关闭

☆秋雨 聽風★博客

音乐,是人生最大的快乐;音乐,是生活中的一股清流;首先,是陶冶性情的熔炉

 
 
 

日志

 
 

太平洋唱片《中国轻音乐⑨(创作篇)》[WAV+CUE/百度/城通]  

2016-12-01 23:03:58|  分类: 音乐(★ ★ ) |  标签: |举报 |字号 订阅

  下载LOFTER 我的照片书  |

太平洋唱片《中国轻音乐⑨(创作篇)》[WAV+CUE/百度/城通]

太平洋唱片《中国轻音乐⑨(创作篇)》[WAV+CUE/百度/城通] - 秋雨听风 - ☆秋雨 聽風★博客

太平洋唱片《中国轻音乐⑨(创作篇)》[WAV+CUE/百度/城通] - 秋雨听风 - ☆秋雨 聽風★博客

太平洋唱片《中国轻音乐⑨(创作篇)》[WAV+CUE/百度/城通] - 秋雨听风 - ☆秋雨 聽風★博客

 

专辑名称:中国轻音乐⑨(创作篇)
音乐演奏:中央乐团/广东歌舞团/太平洋乐队
出版发行:太平洋音影公司
ISBN:7-7991-0615-1
出版日期:2012年
资源格式:WAV+CUE
专辑介绍:
  有没有那么一首歌,能唤起你曾经美好的记忆。经典音乐能使原本平实的生活回味深长,感同身受,就像是主人公在倾诉自己内心的声音。如说如唱,真实、感人。在此篇中,精选经典音乐《校园的早晨》、《军港之夜》、《蜗牛和黄鹂鸟》等我们耳熟能详的音乐。聆听经典音乐,就像在读一首首小诗,那些温柔恬静、柔美抒情的曲调和宁静悠扬的意境深深触动着你的心,优美的歌声漂浮在岁月长河里,感人至深。
专辑曲目:
01.兰花和蝴蝶  谷建芬作曲/汀家琳编曲
02.校园的早晨  谷建芬作曲/编曲
03.绿岛小夜曲  周兰萍作曲/丁家琳编曲
04.漫步  刘庄作曲/编曲
05.雨夜花  刘庄作曲/编曲
06.海上的歌  刘念劬作曲/顾淡如/黎石编曲
07.金梭和银梭  金凤浩作曲顾淡如/黎石编曲
08.吐鲁番的葡萄熟了  施光南作曲/顾淡如/黎石编曲
09.喜洋洋  刘明源作曲/顾淡如/黎石编曲
10.晚风  伍佰作曲/丁家琳等编曲
11.兰花草  陈贤德/张弼作曲/丁家琳等编曲
12.乡间之路  叶佳修作曲/丁家琳等编曲
13.橄榄树  李泰祥作曲/丁家琳等编曲
14.军港之夜  刘诗召作曲/丁家琳等编曲
15.蜗牛与黄鹂鸟  林建昌作曲/丁家琳等编曲
16.踏浪  古月作曲/金友中编曲

CUE代码修改显示播放器界面

太平洋唱片《中国轻音乐⑨(创作篇)》[WAV+CUE/百度/城通] - 秋雨听风 - ☆秋雨 聽風★博客

 CUE代码如下:

REM DISCID E00C7E10
REM COMMENT "ExactAudioCopy v0.99pb5"
PERFORMER "中国轻音乐⑨(创作篇)"
REM DATE 2012
TITLE "中国轻音乐"
FILE "中国轻音乐【创作篇】.wav" WAVE
  TRACK 01 AUDIO
    TITLE "01 兰花和蝴蝶"
    PERFORMER "中国轻音乐⑨(创作篇)"
    INDEX 01 00:00:00
  TRACK 02 AUDIO
    TITLE "02 校园的早晨"
    PERFORMER "中国轻音乐⑨(创作篇)"
    INDEX 01 03:14:26
  TRACK 03 AUDIO
    TITLE "03 绿岛小夜曲"
    PERFORMER "中国轻音乐⑨(创作篇)"
    INDEX 01 05:51:68
  TRACK 04 AUDIO
    TITLE "04 漫步"
    PERFORMER "中国轻音乐⑨(创作篇)"
    INDEX 01 10:23:17
  TRACK 05 AUDIO
    TITLE "05 雨夜花"
    PERFORMER "中国轻音乐⑨(创作篇)"
    INDEX 01 14:47:65
  TRACK 06 AUDIO
    TITLE "06 海上的歌"
    PERFORMER "中国轻音乐⑨(创作篇)"
    INDEX 01 17:09:47
  TRACK 07 AUDIO
    TITLE "07 金梭和银梭"
    PERFORMER "中国轻音乐⑨(创作篇)"
    INDEX 01 20:54:73
  TRACK 08 AUDIO
    TITLE "08 吐鲁番的葡萄熟了"
    PERFORMER "中国轻音乐⑨(创作篇)"
    INDEX 01 24:13:19
  TRACK 09 AUDIO
    TITLE "09 喜洋洋"
    PERFORMER "中国轻音乐⑨(创作篇)"
    INDEX 01 27:12:24
  TRACK 10 AUDIO
    TITLE "10 晚风"
    PERFORMER "中国轻音乐⑨(创作篇)"
    INDEX 01 30:13:11
  TRACK 11 AUDIO
    TITLE "11 兰花草"
    PERFORMER "中国轻音乐⑨(创作篇)"
    INDEX 01 33:05:34
  TRACK 12 AUDIO
    TITLE "12 乡间之路"
    PERFORMER "中国轻音乐⑨(创作篇)"
    INDEX 01 35:40:54
  TRACK 13 AUDIO
    TITLE "13 橄榄树"
    PERFORMER "中国轻音乐⑨(创作篇)"
    INDEX 01 38:49:63
  TRACK 14 AUDIO
    TITLE "14 军港之夜"
    PERFORMER "中国轻音乐⑨(创作篇)"
    INDEX 01 43:28:09
  TRACK 15 AUDIO
    TITLE "15 蜗牛与黄鹂鸟"
    PERFORMER "中国轻音乐⑨(创作篇)"
    INDEX 01 46:56:38
  TRACK 16 AUDIO
    TITLE "16 踏浪"
    PERFORMER "中国轻音乐⑨(创作篇)"
    INDEX 01 49:15:26

太平洋唱片《中国轻音乐⑨(创作篇)》[WAV+CUE/百度/城通] - 秋雨听风 - ☆秋雨 聽風★博客

 

红色代码复制后,对着CUE文件选者记事本打开后;

把里面的代码替换后,播放器上播放CUE文件,就是显示这样的界面。



下载地址:

太平洋唱片《中国轻音乐⑨(创作篇)》[WAV+CUE].rar


 太平洋唱片《中国轻音乐⑨(创作篇)》[WAV+CUE].rar 

  评论这张
 
阅读(627)| 评论(0)
推荐

历史上的今天

在LOFTER的更多文章

评论

<#--最新日志,群博日志--> <#--推荐日志--> <#--引用记录--> <#--博主推荐--> <#--随机阅读--> <#--首页推荐--> <#--历史上的今天--> <#--被推荐日志--> <#--上一篇,下一篇--> <#-- 热度 --> <#-- 网易新闻广告 --> <#--右边模块结构--> <#--评论模块结构--> <#--引用模块结构--> <#--博主发起的投票-->
 
 
 
 
 
 
 
 
 
 
 
 
 
 

页脚

网易公司版权所有 ©1997-2017