注册 登录  
 加关注
   显示下一条  |  关闭
温馨提示!由于新浪微博认证机制调整,您的新浪微博帐号绑定已过期,请重新绑定!立即重新绑定新浪微博》  |  关闭

☆秋雨 聽風★博客

音乐,是人生最大的快乐;音乐,是生活中的一股清流;首先,是陶冶性情的熔炉

 
 
 

日志

 
 

西域风情萨克斯风①+② 2cd/flac+cue  

2016-12-23 16:12:49|  分类: 音乐(★ ★ ) |  标签: |举报 |字号 订阅

  下载LOFTER 我的照片书  |

西域风情萨克斯风①+② 2cd/flac+cue


西域风情萨克斯风①+② 2cd/flac+cue - 秋雨听风 - ☆秋雨 聽風★博客

西域风情萨克斯风①+② 2cd/flac+cue - 秋雨听风 - ☆秋雨 聽風★博客

 

专辑中文名: 西域风情萨克斯风①
艺术家: 星文唱片
资源格式: FLAC+CUE
发行时间: 2004年

出版: 中国音乐家音像出版社
ISRC: CN-A50-04-502-00/A.J6
专辑介绍:
这里有最深邃唯美的旋律,陪伴你的假日,深呼吸,做个极致小资;
这里有最经典美妙的西域情歌,掀动你的怀旧心潮,西风伴爱回归;
这里有最完美流畅的演奏,技艺与品位同在,因为选择所以挑剔。
自从王洛宾从新疆采下第一朵带着朝露的红玫瑰之后,西部情歌便
成了我们口中的最爱小曲,悄然带出我们心中对热情单纯的爱情的
渴盼,进而连西部的明月.飘香的美酒都成为我们脑中的向往。西域
之恋,表现为一块绣花丝巾的绚丽.一片绿地的葱茏和一首民歌小调
的明快深情。烂漫委婉的萨克斯最适合在都市繁华喧哗的背后打开
一方恬静的自我空间,铜管的华丽高贵为闹中取静的人们的休闲镀
上优雅的气度。

专辑曲目:

CD①
01.2002年的第一场雪
02.北方的天空
03.可爱的一朵玫瑰花
04.半个月亮爬上来
05.阿拉木汗
06.花儿为什么这样红
07.比帕尔
08.嘎哦丽泰
09.新疆好
10.哇哈哈
11.鱼夫之歌
12.玛依拉
13.心上人
14.担水姑娘
15.丰收之歌
16.喀什噶尔

西域风情萨克斯风①+② 2cd/flac+cue - 秋雨听风 - ☆秋雨 聽風★博客

西域风情萨克斯风①+② 2cd/flac+cue - 秋雨听风 - ☆秋雨 聽風★博客

  

CD②

01.草原之夜
02.冲的的惩罚
03.达坂城的姑娘
04.青春舞曲
05.送我一朵玫瑰
06.在那银色的月光下
07.萨拉姆.毛主席
08.草原上升起不落的太阳
09.美丽的姑娘
10.掀起你的盖头来
11.世世代代铭记毛主席
12.一杯美酒
13.牡丹汗
14.云雀之歌
15.请问你爱不爱我
16.月下情

西域风情萨克斯风①+② 2cd/flac+cue - 秋雨听风 - ☆秋雨 聽風★博客

 

西域风情萨克斯风①.rar

西域风情萨克斯风②.rar

注:专辑解压后文件,CUE文件有问题!

其它播放器可正常播放CUE文件,只有FOOBAR2000不能播放!!

-------------------------------------------------

 
西域风情萨克斯风①+② 2cd/flac+cue - 秋雨听风 - ☆秋雨 聽風★博客
 
西域风情萨克斯风①+② 2cd/flac+cue - 秋雨听风 - ☆秋雨 聽風★博客

 

西域风情萨克斯风①修改后的CUE代码

REM DISCID E70EED10
REM COMMENT "ExactAudioCopy v0.99pb5"
PERFORMER "西域风情"
REM DATE 2004
TITLE "西域风情《萨克斯风①》"
FILE "西域风情萨克斯风①.flac" WAVE
  TRACK 01 AUDIO
    INDEX 01 00:00:00
    TITLE "01.2002年的第一场雪"
  TRACK 02 AUDIO
    TITLE "02.北方的天空"
    INDEX 01 04:24:52
  TRACK 03 AUDIO
    TITLE "03.可爱的一朵玫瑰花"
    INDEX 01 09:07:59
  TRACK 04 AUDIO
    TITLE "04.半个月亮爬上来"
    INDEX 01 11:21:41
  TRACK 05 AUDIO
    TITLE "05.阿拉木汗"
    INDEX 01 15:15:39
  TRACK 06 AUDIO
    TITLE "06.花儿为什么这样红"
    INDEX 01 19:23:03
  TRACK 07 AUDIO
    TITLE "07.比帕尔"
    INDEX 01 23:24:08
  TRACK 08 AUDIO
    TITLE "08.嘎哦丽泰"
    INDEX 01 27:23:47
  TRACK 09 AUDIO
    TITLE "09.新疆好"
    INDEX 01 32:09:21
  TRACK 10 AUDIO
    TITLE "10.哇哈哈"
    INDEX 01 36:45:53
  TRACK 11 AUDIO
    TITLE "11.鱼夫之歌"
    INDEX 01 39:47:19
  TRACK 12 AUDIO
    TITLE "12.玛依拉"
    INDEX 01 44:05:25
  TRACK 13 AUDIO
    TITLE "13.心上人"
    INDEX 01 49:07:23
  TRACK 14 AUDIO
    TITLE "14.担水姑娘"
    INDEX 01 52:11:15
  TRACK 15 AUDIO
    TITLE "15.丰收之歌"
    INDEX 01 55:17:69
  TRACK 16 AUDIO
    TITLE "16.喀什噶尔"
    INDEX 01 59:19:03

  评论这张
 
阅读(554)| 评论(0)
推荐

历史上的今天

在LOFTER的更多文章

评论

<#--最新日志,群博日志--> <#--推荐日志--> <#--引用记录--> <#--博主推荐--> <#--随机阅读--> <#--首页推荐--> <#--历史上的今天--> <#--被推荐日志--> <#--上一篇,下一篇--> <#-- 热度 --> <#-- 网易新闻广告 --> <#--右边模块结构--> <#--评论模块结构--> <#--引用模块结构--> <#--博主发起的投票-->
 
 
 
 
 
 
 
 
 
 
 
 
 
 

页脚

网易公司版权所有 ©1997-2017