注册 登录  
 加关注
   显示下一条  |  关闭
温馨提示!由于新浪微博认证机制调整,您的新浪微博帐号绑定已过期,请重新绑定!立即重新绑定新浪微博》  |  关闭

☆秋雨 聽風★博客

音乐,是人生最大的快乐;音乐,是生活中的一股清流;首先,是陶冶性情的熔炉

 
 
 

日志

 
 

纯净晶莹柔情似水-《金手指双电子琴(甜歌篇)》[WAV+CUE/城通]  

2017-01-12 12:23:00|  分类: 音乐(★ ★ ) |  标签: |举报 |字号 订阅

  下载LOFTER 我的照片书  |

纯净晶莹柔情似水-《金手指双电子琴(甜歌篇)》[WAV+CUE/城通]


纯净晶莹柔情似水-《金手指双电子琴(甜歌篇)》[WAV+CUE] - 秋雨听风 - ☆秋雨 聽風★博客

专辑名称:金手指双电子琴(甜歌篇)
专辑艺人:群星
出版公司:长春电影制片厂银声音像出版社
ISRC:CN-D16-04-381-00/A.J6
发行日期:2004年
资源格式:WAV+CUE

 

专辑简介:
纯净晶莹  柔情似水的乐曲
让沉睡许久的心灵  重新苏醒


专辑曲目:
DISC B
01.北国之春
02.真的好想你
03.流浪歌
04.快乐老家
05.阿美
06.月圆花好
07.我怎么哭了
08.你到底爱我不爱
09.你怎么说
10.相思河畔
11.绿岛小夜曲
12.南屏晚钟
13.梅花三弄
14.采槟榔
15.牵引
16.一剪梅
17.昨夜梦醒时
18.落花流水
19.巧合
20.最后一夜

 

纯净晶莹柔情似水-《金手指双电子琴(甜歌篇)》[WAV+CUE/城通] - 秋雨听风 - ☆秋雨 聽風★博客

 REM DISCID 4510CA14
REM COMMENT "ExactAudioCopy v0.99pb5"
PERFORMER "群星"
REM DATE 2004
TITLE "金手指双电子琴 甜歌篇"
FILE "未知艺术家 - 未知标题.wav" WAVE
  TRACK 01 AUDIO
    TITLE "Track01"
    PERFORMER "群星"
    INDEX 01 00:00:00
  TRACK 02 AUDIO
    TITLE "Track02"
    PERFORMER "群星"
    INDEX 01 03:44:59
  TRACK 03 AUDIO
    TITLE "Track03"
    PERFORMER "群星"
    INDEX 00 03:44:59
    INDEX 01 09:52:28
  TRACK 04 AUDIO
    TITLE "Track04"
    PERFORMER "群星"
    INDEX 00 03:44:59
    INDEX 01 16:04:18
  TRACK 05 AUDIO
    TITLE "Track05"
    PERFORMER "群星"
    INDEX 00 03:44:59
    INDEX 01 21:26:56
  TRACK 06 AUDIO
    TITLE "Track06"
    PERFORMER "群星"
    INDEX 00 03:44:59
    INDEX 01 24:14:27
  TRACK 07 AUDIO
    TITLE "Track07"
    PERFORMER "群星"
    INDEX 00 03:44:59
    INDEX 01 27:25:53
  TRACK 08 AUDIO
    TITLE "Track08"
    PERFORMER "群星"
    INDEX 00 03:44:59
    INDEX 01 30:47:60
  TRACK 09 AUDIO
    TITLE "Track09"
    PERFORMER "群星"
    INDEX 00 03:44:59
    INDEX 01 34:05:38
  TRACK 10 AUDIO
    TITLE "Track10"
    PERFORMER "群星"
    INDEX 00 03:44:59
    INDEX 01 37:14:61
  TRACK 11 AUDIO
    TITLE "Track11"
    PERFORMER "群星"
    INDEX 00 03:44:59
    INDEX 01 39:40:46
  TRACK 12 AUDIO
    TITLE "Track12"
    PERFORMER "群星"
    INDEX 00 03:44:59
    INDEX 01 42:19:43
  TRACK 13 AUDIO
    TITLE "Track13"
    PERFORMER "群星"
    INDEX 00 03:44:59
    INDEX 01 44:57:06
  TRACK 14 AUDIO
    TITLE "Track14"
    PERFORMER "群星"
    INDEX 00 03:44:59
    INDEX 01 48:53:38
  TRACK 15 AUDIO
    TITLE "Track15"
    PERFORMER "群星"
    INDEX 00 03:44:59
    INDEX 01 51:55:08
  TRACK 16 AUDIO
    TITLE "Track16"
    PERFORMER "群星"
    INDEX 00 03:44:59
    INDEX 01 55:52:35
  TRACK 17 AUDIO
    TITLE "Track17"
    PERFORMER "群星"
    INDEX 00 03:44:59
    INDEX 01 59:35:48
  TRACK 18 AUDIO
    TITLE "Track18"
    PERFORMER "群星"
    INDEX 00 03:44:59
    INDEX 01 63:04:04
  TRACK 19 AUDIO
    TITLE "Track19"
    PERFORMER "群星"
    INDEX 00 03:44:59
    INDEX 01 65:59:24
  TRACK 20 AUDIO
    TITLE "Track20"
    PERFORMER "群星"
    INDEX 00 03:44:59
    INDEX 01 68:39:40

 专辑为2CD,还有一张CD名字为《柔情篇》

专辑下载:

https://v.ctfile.com/info/l4x356120

https://page93.ctfile.com/fs/grp165635780



  评论这张
 
阅读(885)| 评论(0)
推荐

历史上的今天

在LOFTER的更多文章

评论

<#--最新日志,群博日志--> <#--推荐日志--> <#--引用记录--> <#--博主推荐--> <#--随机阅读--> <#--首页推荐--> <#--历史上的今天--> <#--被推荐日志--> <#--上一篇,下一篇--> <#-- 热度 --> <#-- 网易新闻广告 --> <#--右边模块结构--> <#--评论模块结构--> <#--引用模块结构--> <#--博主发起的投票-->
 
 
 
 
 
 
 
 
 
 
 
 
 
 

页脚

网易公司版权所有 ©1997-2017