注册 登录  
 加关注
   显示下一条  |  关闭
温馨提示!由于新浪微博认证机制调整,您的新浪微博帐号绑定已过期,请重新绑定!立即重新绑定新浪微博》  |  关闭

☆秋雨 聽風★博客

音乐,是人生最大的快乐;音乐,是生活中的一股清流;首先,是陶冶性情的熔炉

 
 
 

日志

 
 

竹笛大师演奏家《陈悦作品全集 8CD》[百度]  

2017-01-01 18:31:06|  分类: 音乐(★ ★ ) |  标签: |举报 |字号 订阅

  下载LOFTER 我的照片书  |

竹笛大师演奏家《陈悦作品全集 8CD》[百度]

竹笛大师演奏家《陈悦作品全集 8CD》[百度] - 秋雨听风 - ☆秋雨 聽風★博客

 


专辑名称: 陈悦作品全集8CD
艺 人:陈悦
资源格式:无损资源8专辑
内容简介:
  杭州才女陈悦,我国著名笛箫演奏家,1978年出生于浙江省杭州市,六岁随父亲学习竹笛,十二岁拜著名演奏家,教育家,笛子大师赵松庭先生为师,成为其关门弟子。
  1993年考入中国音乐学院附中,师从张维良教授学习笛、箫。1996年考入中国音乐学院本科。2000年被学院免试推荐为本院研究生,继续攻读硕士学位。现为中国音乐家协会民族管乐研究会、中国民族管弦乐学会会员。2001年被中央民族乐团聘为客席独奏演员。曾多次与电影乐团、东方歌舞团、中央芭蕾舞团、中国“爱乐女”乐团、澳门中乐团等合作。先后参加了中央、北京、浙江、汕头等多家电视台、广播电台的录影、录音及各种专题晚会的录制。1997年参加中央电视台“普天同庆”香港回归民族音乐会现场直播晚会。1999年录制了《张维良笛子基础教程》示范演奏的光盘。2000年11月随“天音”室内乐团赴法参加法国“中国文化季”的专场演出,受到极度好评。同年参加了“纪念冯子存诞辰九十五周年作品音乐会”的演出、及著名作曲家金湘先生作品《诗经五首》的演出和录音。2001年参加了中央电视台春节歌舞晚会节目的录制。
   陈悦曾出访美、日、韩、法、俄等国家和地区,受到广泛好评。曾录制发行了笛子专辑《情竹》、《无词歌》,箫专辑《箫色》等一系列脍炙人口的优秀作品。其作品精致、娴熟、极其质感的演绎,向每一根神经发起挑战,悠长的音色,美丽的伤感,把听众带入“画中乐、乐中画”的境界。

专辑曲目
(一)陈悦《箫色》(FLAC+CUE)
01 良霄
02 在银色的月光下
03 掀起你的盖头来
04 牧歌
05 送别
06 梅
07 二泉映月
08 母亲
09 长城谣
10 梁祝
11 思乡曲
(二)陈悦《中国之悦》(WAV+CUE)
01 娄兰古道
02 梦回鄂尔多斯
03 瑶舞
04 雅鲁藏布的神话
05 守月
06 夕渔
07 吐丝草
08 惜别离
(三)陈悦《情竹》(WAV+CUE)
01 相约一九九八
02 城里的月光
03 雪中莲
04 但愿人长久
05 杵歌
06 独角戏
07 俩俩相忘
08 追风的女儿
09 味道
10 采桑小路


试听:杵 歌

(四)陈悦《乱 红》(WAV+CUE)
01 梅花三弄
02 绿野仙踪
03 梦幻欧罗巴
04 乱 红(笛)
05 岫壑浮云
06 爱尔兰晨风(笛)
07 妆台秋思
08 江月初照人(埙)
09 苦雪烹茶
10 帘动荷风
(五)陈悦《无词歌》(APE+CUE)
01 王菲《天空》
02 王菲《红豆》
03 许茹云《如果云知道》
04 周蕙《风铃》
05 郑钧《灰姑娘》
06 陶晶莹《太委屈》
07 顺子《回家》
08 张柏芝《星语心愿》
09 那英《白丝线》
10 许美静《边界1999》
(六)陈悦《筒箫》(FLAC+CUE)
01 春江花月夜-《筒箫》
02 梅花三弄-《筒箫》
03 清明上河图-《筒箫》
04 阳关三叠-《筒箫》
05 傍妆台-《筒箫》
06 良宵-《筒箫》
07 胡笳十八拍-《筒箫》
08 苏武牧羊-《筒箫》
09 平沙落雁-《筒箫》
10 关山月-《筒箫》
11 平湖秋月-《筒箫》
(七)陈悦《远行》(WAV+CUE)
01 吉尔拉
02 桃花渡
03 古刹
04 岛歌
05 风情少女
06 雨之灵
07 神邸
08 稻穗
09 莫日格勒
10 云踪
(八)陈悦《东西方的碰撞》(APE+CUE/320K/MP3)
01 茉莉花(中国民歌)
02 夏日里最后一朵玫瑰(英国民谣)
03 梅花三弄(古曲)
04 G弦上的咏叹调(巴赫)
05 良宵(刘天华-张维良)
06 圣母之子(加泰罗尼亚民谣)
07 又见炊烟(中国歌曲)
08 幽林深处(丹麦民谣)
09 金丝线(加泰罗尼亚民谣)
10 吉普赛之歌(匈牙利民谣)
11 苏武牧羊(中国民谣)
12 莎莉花园(爱尔兰民谣)
13 爱情华尔兹(雷曼)
14 鬲溪梅令(古曲)
15 相信我(英语歌曲)
16 日本民谣
17 《四季》之冬 慢板(维瓦尔蒂)
18 春江花月夜(古曲)
仅供试听之用,喜欢请支持正版!

下载地址:
==============================
竹笛大师演奏家《陈悦作品全集 8CD》.rar

陈悦作品全集8CD

==============================

专辑:陈悦《情竹》(WAV+CUE)下载后,CUE文件有点问题!

播霸2000不能播放CUE文件!!自行修改CUE文件如下:

PERFORMER "陈悦"
TITLE "陈悦《情竹》"
REM DATE 1999
REM DISCID 810A710A
REM COMMENT "ExactAudioCopy v0.99pb5"
FILE "陈悦 - 情竹.wav" WAVE
  TRACK 01 AUDIO
    TITLE "Track01"
    PERFORMER "陈悦"
    INDEX 01 00:00:00
  TRACK 02 AUDIO
    TITLE "Track02"
    PERFORMER "陈悦"
    INDEX 00 04:45:47
    INDEX 01 04:48:25
  TRACK 03 AUDIO
    TITLE "Track03"
    PERFORMER "陈悦"
    INDEX 00 10:04:64
    INDEX 01 10:07:55
  TRACK 04 AUDIO
    TITLE "Track04"
    PERFORMER "陈悦"
    INDEX 00 14:49:60
    INDEX 01 14:51:72
  TRACK 05 AUDIO
    TITLE "Track05"
    PERFORMER "陈悦"
    INDEX 00 18:52:00
    INDEX 01 18:54:30
  TRACK 06 AUDIO
    TITLE "Track06"
    PERFORMER "陈悦"
    INDEX 00 22:38:57
    INDEX 01 22:40:60
  TRACK 07 AUDIO
    TITLE "Track07"
    PERFORMER "陈悦"
    INDEX 00 27:10:57
    INDEX 01 27:13:12
  TRACK 08 AUDIO
    TITLE "Track08"
    PERFORMER "陈悦"
    INDEX 00 31:11:05
    INDEX 01 31:13:60
  TRACK 09 AUDIO
    TITLE "Track09"
    PERFORMER "陈悦"
    INDEX 00 36:00:17
    INDEX 01 36:02:20
  TRACK 10 AUDIO
    TITLE "Track10"
    PERFORMER "陈悦"
    INDEX 00 40:17:12
    INDEX 01 40:19:20

竹笛大师演奏家《陈悦作品全集 8CD》[百度] - 秋雨听风 - ☆秋雨 聽風★博客

 

  评论这张
 
阅读(667)| 评论(0)
推荐

历史上的今天

评论

<#--最新日志,群博日志--> <#--推荐日志--> <#--引用记录--> <#--博主推荐--> <#--随机阅读--> <#--首页推荐--> <#--历史上的今天--> <#--被推荐日志--> <#--上一篇,下一篇--> <#-- 热度 --> <#-- 网易新闻广告 --> <#--右边模块结构--> <#--评论模块结构--> <#--引用模块结构--> <#--博主发起的投票-->
 
 
 
 
 
 
 
 
 
 
 
 
 
 

页脚

网易公司版权所有 ©1997-2017