注册 登录  
 加关注
   显示下一条  |  关闭
温馨提示!由于新浪微博认证机制调整,您的新浪微博帐号绑定已过期,请重新绑定!立即重新绑定新浪微博》  |  关闭

☆秋雨 聽風★博客

音乐,是人生最大的快乐;音乐,是生活中的一股清流;首先,是陶冶性情的熔炉

 
 
 

日志

 
 

HI-FI一次酣畅淋漓的情感释怀:紫水晶 雷婷《婷婷醉歌》3CD [WAV+CUE]  

2017-01-21 20:23:27|  分类: 音乐 |  标签: |举报 |字号 订阅

  下载LOFTER 我的照片书  |

HI-FI一次酣畅淋漓的情感释怀:紫水晶 雷婷《婷婷醉歌》3CD [WAV+CUE]

HI-FI一次酣畅淋漓的情感释怀:紫水晶 雷婷《婷婷醉歌》3CD [WAV+CUE] - 秋雨听风 - ☆秋雨 聽風★博客 

HI-FI一次酣畅淋漓的情感释怀:紫水晶 雷婷《婷婷醉歌》3CD [WAV+CUE] - 秋雨听风 - ☆秋雨 聽風★博客 

HI-FI一次酣畅淋漓的情感释怀:紫水晶 雷婷《婷婷醉歌》3CD [WAV+CUE] - 秋雨听风 - ☆秋雨 聽風★博客 

HI-FI一次酣畅淋漓的情感释怀:紫水晶 雷婷《婷婷醉歌》3CD [WAV+CUE] - 秋雨听风 - ☆秋雨 聽風★博客 

HI-FI一次酣畅淋漓的情感释怀:紫水晶 雷婷《婷婷醉歌》3CD [WAV+CUE] - 秋雨听风 - ☆秋雨 聽風★博客

HI-FI一次酣畅淋漓的情感释怀:紫水晶 雷婷《婷婷醉歌》3CD [WAV+CUE] - 秋雨听风 - ☆秋雨 聽風★博客

HI-FI一次酣畅淋漓的情感释怀:紫水晶 雷婷《婷婷醉歌》3CD [WAV+CUE] - 秋雨听风 - ☆秋雨 聽風★博客

 专辑名称:婷婷醉歌

感性如旧,靓声如旧。

万种风情犹如清风缓缓飘过,惆怅年华似水般淡淡飘过。

 

让优美的歌声伴随你,专为汽车音响量身定做的HI-FI唱片令你在飞驰中享受近乎无暇的美妙音乐。

当你赌赛在繁忙的公路上,急的如热锅上的蚂蚁,何不来段优美动听的音乐,让这漫长的等待成为休闲的好时光。当你悠然驾车与爱人野外郊游或是独自兜风又或是在高速路上飞驰时,窗外迷人的景色个清新的空气的确令人心旷神怡,如果在播放一张温馨浪漫或者节奏明快动感十足的唱片,那会是让你的旅程更舒心,畅快的情调。
本唱片在不影响驾驶安全的前提下,让你高速情绪,解除疲劳,增加气氛,丰富你的旅途乐趣......

专辑曲目:

CD1:

01.我用一生来等你

02.不是因为寂寞才想你

03.爱你爱的好疲惫

04.爱你十分泪七分

05.爱情的故事

06.爱情的傻瓜

07.爱情断了线

08.爱上你是个错

09.别哭我最爱的人

10.不是我不小心

11.檫肩而过

12.单身情歌

13.从此我该怎么过

14.悲伤双曲线

15.爱上他是为了忘记你

16.对不起我的最爱

CD2:

01.不要用我的爱来伤害我

02.不该让你等太久

03.不要让我再流泪

04.等一分钟

05.放手去爱

06.多想把你抱住

07.分手在那个秋天

08.孤独无罪

09.寂寞的滋味

10.今生最爱

11.绝情人

12.你失去了最爱的人

13.你走进了她的房间

14.你就是我最想要的人

15.你的爱给了谁

16.给我一次疼你的机会

CD3:

01.我是真的爱你

02.伤了我伤了你自己

03.挪威森林

04.太傻

05.如果我说忘了你

06.你是我一生最爱的人

07.我真的痛了

08.想起

09.夜上海

10.今生最爱

11.移情别恋

12.摘下满天星

13.追梦人

14.最浪漫的事

15.银白色的月光.

16.一场游戏一场梦

HI-FI一次酣畅淋漓的情感释怀:紫水晶 雷婷《婷婷醉歌》3CD [WAV+CUE] - 秋雨听风 - ☆秋雨 聽風★博客

 

HI-FI一次酣畅淋漓的情感释怀:紫水晶 雷婷《婷婷醉歌》3CD [WAV+CUE] - 秋雨听风 - ☆秋雨 聽風★博客

 

HI-FI一次酣畅淋漓的情感释怀:紫水晶 雷婷《婷婷醉歌》3CD [WAV+CUE] - 秋雨听风 - ☆秋雨 聽風★博客

 

Exact Audio Copy V1.1 from 23. June 2015

EAC 抓取日志文件从15. 一月 2017, 13:38

未知艺术家 / 未知标题

使用驱动器  :ASUS    DRW-2014L1T   Adapter: 1  ID: 0

读取模式 : 暴发

读取偏移校正:               : 0
读取 Lead-In 和 Lead-Out : 否
用静音填充抓取中丢失偏移的采样       : 是
去除首尾静音块               : 否
 在CRC 计算中使用了空样本       : 是
已用接口                  : Win NT 及 2000 本地 Win32 接口

所用输出模式: : 内部 WAV 函数
样本格式    : 44.100 Hz; 16 Bit; 立体声


已抓取 CD 的 TOC

     音轨 |    起始    |    长度    |  起始扇区  |  结束扇区 
    --------------------------------------------
      1 |  0:00.00 |  4:43.15 |      0 |  21239
      2 |  4:43.15 |  4:15.59 |  21240 |  40423
      3 |  8:58.74 |  5:19.17 |  40424 |  64365
      4 | 14:18.16 |  4:43.37 |  64366 |  85627
      5 | 19:01.53 |  4:39.60 |  85628 | 106612
      6 | 23:41.38 |  5:06.55 | 106613 | 129617
      7 | 28:48.18 |  4:35.63 | 129618 | 150305
      8 | 33:24.06 |  4:00.37 | 150306 | 168342
      9 | 37:24.43 |  4:06.53 | 168343 | 186845
     10 | 41:31.21 |  4:42.18 | 186846 | 208013
     11 | 46:13.39 |  3:29.23 | 208014 | 223711
     12 | 49:42.62 |  4:19.38 | 223712 | 243174
     13 | 54:02.25 |  4:19.50 | 243175 | 262649
     14 | 58:22.00 |  4:22.03 | 262650 | 282302
     15 | 62:44.03 |  4:40.05 | 282303 | 303307
     16 | 67:24.08 |  4:08.25 | 303308 | 321932


范围状态及错误

已选择范围

     文件名 C:\Users\Administrator\Desktop\新建文件夹 (3)\未知艺术家 - 未知标题.wav

     计时问题 0:00:00 - 0:00:08
     计时问题 0:00:16
     计时问题 1:11:09
     计时问题 1:11:14

     峰值电平 100.0 %
     抓取速度 28.5 X
     复制 CRC B8120FAB
     复制结束

没有错误发生

状态报告结尾

---- CUETools DB Plugin V2.1.6

[CTDB TOCID: CmaP8gZWPMyRBNX5YIH5djWjuow-] disk not present in database
Submit result: insufficient quality

------------------------------------------------------------

Exact Audio Copy V1.1 from 23. June 2015

EAC 抓取日志文件从27. 一月 2017, 12:16

未知艺术家 / 未知标题

使用驱动器  :ASUS    DRW-2014L1T   Adapter: 1  ID: 0

读取模式 : 暴发

读取偏移校正:               : 0
读取 Lead-In 和 Lead-Out : 否
用静音填充抓取中丢失偏移的采样       : 是
去除首尾静音块               : 否
 在CRC 计算中使用了空样本       : 是
已用接口                  : Win NT 及 2000 本地 Win32 接口

所用输出模式: : 内部 WAV 函数
样本格式    : 44.100 Hz; 16 Bit; 立体声


已抓取 CD 的 TOC

     音轨 |    起始    |    长度    |  起始扇区  |  结束扇区 
    --------------------------------------------
      1 |  0:00.00 |  4:19.24 |      0 |  19448
      2 |  4:19.24 |  4:58.17 |  19449 |  41815
      3 |  9:17.41 |  4:16.12 |  41816 |  61027
      4 | 13:33.53 |  3:58.16 |  61028 |  78893
      5 | 17:31.69 |  4:26.64 |  78894 |  98907
      6 | 21:58.58 |  4:29.05 |  98908 | 119087
      7 | 26:27.63 |  4:55.42 | 119088 | 141254
      8 | 31:23.30 |  4:27.61 | 141255 | 161340
      9 | 35:51.16 |  3:30.28 | 161341 | 177118
     10 | 39:21.44 |  4:41.30 | 177119 | 198223
     11 | 44:02.74 |  4:31.24 | 198224 | 218572
     12 | 48:34.23 |  5:37.09 | 218573 | 243856
     13 | 54:11.32 |  4:13.32 | 243857 | 262863
     14 | 58:24.64 |  4:25.35 | 262864 | 282773
     15 | 62:50.24 |  4:37.73 | 282774 | 303621
     16 | 67:28.22 |  4:47.61 | 303622 | 325207


范围状态及错误

已选择范围

     文件名 C:\Users\Administrator\Desktop\新建文件夹\未知艺术家 - 未知标题.wav

     计时问题 0:00:01 - 0:00:09
     计时问题 1:01:44
     计时问题 1:10:00
     计时问题 1:11:07

     峰值电平 100.0 %
     抓取速度 28.7 X
     复制 CRC 26860E23
     复制结束

没有错误发生

状态报告结尾

---- CUETools DB Plugin V2.1.6

[CTDB TOCID: 5yRG7v1CsUTU7XCsD_aa19FdFEg-] disk not present in database
Submit result: insufficient quality

-----------------------------------------------------

Exact Audio Copy V1.1 from 23. June 2015

EAC 抓取日志文件从25. 二月 2017, 11:19

未知艺术家 / 未知标题

使用驱动器  :ASUS    DRW-2014L1T   Adapter: 1  ID: 0

读取模式 : 暴发

读取偏移校正:               : 0
读取 Lead-In 和 Lead-Out : 否
用静音填充抓取中丢失偏移的采样       : 是
去除首尾静音块               : 否
 在CRC 计算中使用了空样本       : 是
已用接口                  : Win NT 及 2000 本地 Win32 接口

所用输出模式: : 内部 WAV 函数
样本格式    : 44.100 Hz; 16 Bit; 立体声


已抓取 CD 的 TOC

     音轨 |    起始    |    长度    |  起始扇区  |  结束扇区 
    --------------------------------------------
      1 |  0:00.00 |  5:22.21 |      0 |  24170
      2 |  5:22.21 |  4:41.08 |  24171 |  45253
      3 | 10:03.29 |  6:19.52 |  45254 |  73730
      4 | 16:23.06 |  5:33.25 |  73731 |  98730
      5 | 21:56.31 |  4:14.62 |  98731 | 117842
      6 | 26:11.18 |  4:54.31 | 117843 | 139923
      7 | 31:05.49 |  5:46.06 | 139924 | 165879
      8 | 36:51.55 |  3:46.50 | 165880 | 182879
      9 | 40:38.30 |  4:46.33 | 182880 | 204362
     10 | 45:24.63 |  4:40.01 | 204363 | 225363
     11 | 50:04.64 |  4:50.68 | 225364 | 247181
     12 | 54:55.57 |  4:48.38 | 247182 | 268819
     13 | 59:44.20 |  4:19.65 | 268820 | 288309
     14 | 64:04.10 |  4:35.04 | 288310 | 308938
     15 | 68:39.14 |  5:07.68 | 308939 | 332031
     16 | 73:47.07 |  4:37.37 | 332032 | 352843


范围状态及错误

已选择范围

     文件名 C:\Users\Administrator\Desktop\新建文件夹 (2)\未知艺术家 - 未知标题.wav

     计时问题 0:00:37
     计时问题 0:25:42
     计时问题 0:25:46 - 0:25:51
     计时问题 0:26:04
     计时问题 0:26:12
     计时问题 0:27:35
     计时问题 0:28:46
     计时问题 0:28:52
     计时问题 0:29:14
     计时问题 0:29:18
     计时问题 0:29:22
     计时问题 0:29:26 - 0:29:27
     计时问题 0:29:33
     计时问题 0:30:33
     计时问题 0:31:33
     计时问题 0:32:33 - 0:32:34
     计时问题 0:33:34
     计时问题 0:34:34
     计时问题 0:35:34
     计时问题 0:37:04
     计时问题 0:39:22

     峰值电平 100.0 %
     抓取速度 15.9 X
     复制 CRC BBB3D22D
     复制结束

没有错误发生

状态报告结尾

---- CUETools DB Plugin V2.1.6

[CTDB TOCID: t870.z7epTexdV.YaCuFjZ4bNLg-] disk not present in database
Submit result: insufficient quality

 

http://pan.baidu.com/s/1eRWBytO 密码:i4wf

  评论这张
 
阅读(1172)| 评论(0)
推荐

历史上的今天

在LOFTER的更多文章

评论

<#--最新日志,群博日志--> <#--推荐日志--> <#--引用记录--> <#--博主推荐--> <#--随机阅读--> <#--首页推荐--> <#--历史上的今天--> <#--被推荐日志--> <#--上一篇,下一篇--> <#-- 热度 --> <#-- 网易新闻广告 --> <#--右边模块结构--> <#--评论模块结构--> <#--引用模块结构--> <#--博主发起的投票-->
 
 
 
 
 
 
 
 
 
 
 
 
 
 

页脚

网易公司版权所有 ©1997-2017