注册 登录  
 加关注
   显示下一条  |  关闭
温馨提示!由于新浪微博认证机制调整,您的新浪微博帐号绑定已过期,请重新绑定!立即重新绑定新浪微博》  |  关闭

☆秋雨 聽風★博客

音乐,是人生最大的快乐;音乐,是生活中的一股清流;首先,是陶冶性情的熔炉

 
 
 

日志

 
 

中国首张笛箫跨界发烧唱片-陈悦《远行》[WAV+CUE/百度]  

2017-01-05 10:21:59|  分类: 音乐(★ ★ ) |  标签: |举报 |字号 订阅

  下载LOFTER 我的照片书  |
中国首张笛箫跨界发烧唱片-陈悦《远行》[WAV+CUE/百度]

 中国首张笛箫跨界发烧唱片-陈悦《远行》[WAV+CUE/百度] - 秋雨听风 - ☆秋雨 聽風★博客

中国首张笛箫跨界发烧唱片-陈悦《远行》[WAV+CUE/百度] - 秋雨听风 - ☆秋雨 聽風★博客

 专辑名称:远行
专辑艺人:陈悦
发行公司:广东龙源音像有限公司
出 版 社:天津市文化艺术音像出版社有限公司
ISRC编号:CN-C10-10-306-00/A.J6
发行时间:2011年03月
资源类型:WAV+CUE

专辑简介:
采用1:1直刻无损高品质音源技术
日本MASTER技术处理  德国后期母带制作
中国笛、箫的历史是所有文化形态中最古老的。人类有五千年的文明史,但是出现在文字记载以前的历史,有踪迹可寻的,中国笛、箫是一个突出的例证。众所周知,诞生于八千年以前的河南舞阳贾湖文化骨笛可以说是中国笛、箫的鼻祖,它开创了中原文化的先声。中国笛、箫不仅贯穿了整个历史,而且上自帝王、士大夫,下达平民百姓,中国笛、箫从各个阶层的广泛喜爱。
某年某日,  我行四方。云水潇潇,  奕奕清芳。
竹叶青青,  采而佩之。众香拱之,  逸逸其芳。
笛箫依依,  幽幽其香。

专辑曲目:
01.吉尔拉
02.桃花渡
03.古刹
04.岛歌
05.风情少女
06.雨之灵
07.神邸
08.稻穗
09.莫日格勒
10.云踪
 
陈悦最新笛箫专辑
 
      陈悦笛箫专辑《远行》笛箫依依,幽幽其香。众香拱之,逸逸其芳。竹叶青青,采而佩之。云水潇潇,奕奕清芳,某年某日,我行四方。中国笛、箫不仅历史悠久,而且文化内涵丰富,蕴含着儒、释、道等传统思想的人文精神和超越追求。有“笛奏龙吟水,箫鸣凤下空”之说,故又有凤箫之称。历代文人、士大夫所以对笛、箫情有独钟,正是因为它那清悠淡远的音韵可以安宁身心、陶冶性情。
 
 
 

中国首张笛箫跨界发烧唱片-陈悦《远行》[WAV+CUE/百度] - 秋雨听风 - ☆秋雨 聽風★博客

专辑解压后文件CUE有点问题!下面为修复CUE代码:
 
PERFORMER "陈悦"
TITLE "陈悦《远行》"
FILE "CDImage.wav" WAVE
  TRACK 01 AUDIO
    TITLE "吉尔拉"
    REM DATE 2011
    REM COMMENT
    PERFORMER "陈悦"
    REM GENRE
    INDEX 01 00:00:00
  TRACK 02 AUDIO
    TITLE "桃花渡"
    REM DATE 2011
    REM COMMENT
    PERFORMER "陈悦"
    REM GENRE
    INDEX 00 04:11:21
    INDEX 01 04:14:66
  TRACK 03 AUDIO
    TITLE "古刹"
    REM DATE 2011
    REM COMMENT
    PERFORMER "陈悦"
    REM GENRE
    INDEX 00 09:14:57
    INDEX 01 09:18:27
  TRACK 04 AUDIO
    TITLE "岛歌"
    REM DATE 2011
    REM COMMENT
    PERFORMER "陈悦"
    REM GENRE
    INDEX 00 14:00:65
    INDEX 01 14:04:35
  TRACK 05 AUDIO
    TITLE "风情少女"
    REM DATE 2011
    REM COMMENT
    PERFORMER "陈悦"
    REM GENRE
    INDEX 00 19:21:04
    INDEX 01 19:24:49
  TRACK 06 AUDIO
    TITLE "雨之灵"
    REM DATE 2011
    REM COMMENT
    PERFORMER "陈悦"
    REM GENRE
    INDEX 00 22:25:74
    INDEX 01 22:29:44
  TRACK 07 AUDIO
    TITLE "神邸"
    REM DATE 2011
    REM COMMENT
    PERFORMER "陈悦"
    REM GENRE
    INDEX 00 26:39:12
    INDEX 01 26:42:57
  TRACK 08 AUDIO
    TITLE "稻穗"
    REM DATE 2011
    REM COMMENT
    PERFORMER "陈悦"
    REM GENRE
    INDEX 00 32:18:48
    INDEX 01 32:22:19
  TRACK 09 AUDIO
    TITLE "莫日格勒"
    REM DATE 2011
    REM COMMENT
    PERFORMER "陈悦"
    REM GENRE
    INDEX 00 36:35:42
    INDEX 01 36:39:12
  TRACK 10 AUDIO
    TITLE "云踪"
    REM DATE 2011
    REM COMMENT
    PERFORMER "陈悦"
    REM GENRE
    INDEX 00 41:04:31
    INDEX 01 41:08:01
 

中国首张笛箫跨界发烧唱片-陈悦《远行》[WAV+CUE/百度] - 秋雨听风 - ☆秋雨 聽風★博客

 
[龙源唱片 HD-039X]陈悦笛箫专辑 - 远行 HD
专辑中文名: 远行
专辑英文名: EXPEDITION
艺术家: 陈悦笛箫专辑
音乐类型: 民乐
资源格式: APE+CUE
版本: [龙源唱片 HD-039X]HD
发行时间: 2011-03-15
地区: 大陆

出品:广东龙源音像有限公司
出版:天津市文化艺术音像出版社
唱片编号:HD-039X
ISRC:CN-C10-10-306-00/A.J6
录音棚:中央电视台480平米录音棚
资源出处(Credit):115盘

专辑介绍:
融合世界音乐与新世纪音乐风格
打造中国首张“笛、箫”跨界发烧唱片
HD直刻无损高音质音源技术
HIFI限量珍藏版
  笛箫依依,幽幽其香。众香拱之,逸逸其芳。竹叶青青,采而佩之。云水潇潇,奕奕清芳,某年某日,我行四方。中国笛、箫不仅历史悠久,而且文化内涵丰富,蕴含着儒、释、道等传统思想的人文精神和超越追求。有“笛奏龙吟水,箫鸣凤下空”之说,故又有凤箫之称。历代文人、士大夫所以对笛、箫情有独钟,正是因为它那清悠淡远的音韵可以安宁身心、陶冶性情。
  融合世界音乐与新世纪音乐风格,演奏家陈悦打造中国首张“笛、箫”跨界发烧唱片。
  《远行》以真实记录演奏家的演奏状态为主导,突出演奏时的气息和状态,展现各民族乐器的特点。编曲配器则采用真实乐器,避免过于繁复。追求“简约而不简单”的理念,并尽量采用特色民族乐器,与中国笛、箫配合,例如新疆的冬不拉,西藏的龙头琴、弦子;印度的打击乐;曰本的尺八、三味线;俄罗斯的巴扬手风琴等。
  《远行》所采用的多种音乐元素,真可谓精彩纷呈,美不胜收。从旋律到编配以及笛、箫乐器的细节展现,无不美轮美奂。

专辑曲目:
01. 吉尔拉    [0:04:14.66]
02. 桃花渡    [0:05:03.36]
03. 古刹    [0:04:46.08]
04. 岛歌    [0:05:20.14]
05. 风情少女    [0:03:04.70]
06. 雨之灵    [0:04:13.13]
07. 神邸    [0:05:39.37]
08. 稻穗    [0:04:16.68]
09. 莫日格勒    [0:04:28.64]
10. 云踪    [0:03:59.14]
 
中国首张笛箫跨界发烧唱片-陈悦《远行》[WAV+CUE/百度] - 秋雨听风 - ☆秋雨 聽風★博客
 


  评论这张
 
阅读(608)| 评论(0)
推荐

历史上的今天

在LOFTER的更多文章

评论

<#--最新日志,群博日志--> <#--推荐日志--> <#--引用记录--> <#--博主推荐--> <#--随机阅读--> <#--首页推荐--> <#--历史上的今天--> <#--被推荐日志--> <#--上一篇,下一篇--> <#-- 热度 --> <#-- 网易新闻广告 --> <#--右边模块结构--> <#--评论模块结构--> <#--引用模块结构--> <#--博主发起的投票-->
 
 
 
 
 
 
 
 
 
 
 
 
 
 

页脚

网易公司版权所有 ©1997-2017