注册 登录  
 加关注
   显示下一条  |  关闭
温馨提示!由于新浪微博认证机制调整,您的新浪微博帐号绑定已过期,请重新绑定!立即重新绑定新浪微博》  |  关闭

☆秋雨 聽風★博客

音乐,是人生最大的快乐;音乐,是生活中的一股清流;首先,是陶冶性情的熔炉

 
 
 

日志

 
 

交错柔美的纯音陪你看迷人的草原:2011最新-《梦中草原》 DSD  

2017-01-09 17:11:31|  分类: 音乐(★ ★ ) |  标签: |举报 |字号 订阅

  下载LOFTER 我的照片书  |

交错柔美的纯音陪你看迷人的草原:2011最新-《梦中草原》 DSD

 

交错柔美的纯音陪你看迷人的草原:2011最新-《梦中草原》 DSD - 秋雨听风 - ☆秋雨 聽風★博客 

交错柔美的纯音陪你看迷人的草原:2011最新-《梦中草原》 DSD - 秋雨听风 - ☆秋雨 聽風★博客

 

专辑名称:梦中草原
专辑艺人:群星
制作公司:广东星文文化传播有限公司
出版发行:广东音像出版社
ISRC编码:CN-F18-10-627-00/A.J6
发行时间:2011年02月15日
资源介质:WAV+CUE

◆◆专辑简介◆◆

都是耳熟能详的新歌曲目,
又是用非常国乐的古筝、二胡、笛子等乐器的最新演绎,
一样的旋律,别样的草原神韵就在《梦中草原》..............

草原音乐之旅,悠扬的曲调,舒缓的旋律,辽阔的草原,古朴的风情,

真挚的音乐,悸动的心情,经典熟悉的旋律,全新演绎,令你耳目一新!

 

◆◆专辑曲目◆◆ 


01.套马杆  

02.我要去西藏  

03.卓玛  

04.美丽的草原我的家
05.陪你一起看草原  

06.天边  

07.蒙古人  

08.乌兰巴托之夜  

09.我和草原有个约定  

10.我的根在草原  

11.父亲的草原母亲的河  

12.鸿雁 

 

此专辑曾经收藏!由于移动硬盘损坏,文件也没了!

重新使用抓轨软件exact_audio_copy,动手抓取音轨。

交错柔美的纯音陪你看迷人的草原:2011最新-《梦中草原》 DSD - 秋雨听风 - ☆秋雨 聽風★博客

 

交错柔美的纯音陪你看迷人的草原:2011最新-《梦中草原》 DSD - 秋雨听风 - ☆秋雨 聽風★博客

 

交错柔美的纯音陪你看迷人的草原:2011最新-《梦中草原》 DSD - 秋雨听风 - ☆秋雨 聽風★博客

 

交错柔美的纯音陪你看迷人的草原:2011最新-《梦中草原》 DSD - 秋雨听风 - ☆秋雨 聽風★博客

 Exact Audio Copy V1.0 beta 5 from 2. April 2015

EAC 抓取日志文件从13. 一月 2017, 18:55

未知艺术家 / 未知标题

使用驱动器  :ASUS    DRW-2014L1T   Adapter: 1  ID: 0

读取模式 : 暴发

读取偏移校正:               : 0
读取 Lead-In 和 Lead-Out : 否
用静音填充抓取中丢失偏移的采样       : 是
去除首尾静音块               : 否
 在CRC 计算中使用了空样本       : 是
已用接口                  : Win NT 及 2000 本地 Win32 接口

所用输出模式: : 内部 WAV 函数
样本格式    : 44.100 Hz; 16 Bit; 立体声


已抓取 CD 的 TOC

     音轨 |    起始    |    长度    |  起始扇区  |  结束扇区 
    --------------------------------------------
      1 |  0:00.00 |  4:29.48 |      0 |  20222
      2 |  4:29.48 |  4:52.52 |  20223 |  42174
      3 |  9:22.25 |  4:32.10 |  42175 |  62584
      4 | 13:54.35 |  4:23.74 |  62585 |  82383
      5 | 18:18.34 |  3:39.04 |  82384 |  98812
      6 | 21:57.38 |  4:33.53 |  98813 | 119340
      7 | 26:31.16 |  4:18.74 | 119341 | 138764
      8 | 30:50.15 |  4:08.40 | 138765 | 157404
      9 | 34:58.55 |  3:57.15 | 157405 | 175194
     10 | 38:55.70 |  3:51.43 | 175195 | 192562
     11 | 42:47.38 |  5:33.20 | 192563 | 217557
     12 | 48:20.58 |  4:07.04 | 217558 | 236086


范围状态及错误

已选择范围

     文件名 C:\Users\Administrator\Desktop\新建文件夹\未知艺术家 - 未知标题.wav

     计时问题 0:01:16

     峰值电平 100.0 %
     抓取速度 10.0 X
     复制 CRC 0F691E5E
     复制结束

没有错误发生

状态报告结尾

交错柔美的纯音陪你看迷人的草原:2011最新-《梦中草原》 DSD - 秋雨听风 - ☆秋雨 聽風★博客

 
320kb/mp3下载:http://pan.baidu.com/s/1nvHKO7f 密码:iehz


  评论这张
 
阅读(755)| 评论(0)
推荐

历史上的今天

在LOFTER的更多文章

评论

<#--最新日志,群博日志--> <#--推荐日志--> <#--引用记录--> <#--博主推荐--> <#--随机阅读--> <#--首页推荐--> <#--历史上的今天--> <#--被推荐日志--> <#--上一篇,下一篇--> <#-- 热度 --> <#-- 网易新闻广告 --> <#--右边模块结构--> <#--评论模块结构--> <#--引用模块结构--> <#--博主发起的投票-->
 
 
 
 
 
 
 
 
 
 
 
 
 
 

页脚

网易公司版权所有 ©1997-2017